Комбо Neoline X-COP R700+ R750

Тема в разделе "Neoline", создана пользователем Eduard1978, 18 авг 2017.

  1. Всем добрый день. Торопился сделать обзор на это устройство, если не учел все, то пишите мне, буду по возможности отвечать на Ваши вопросы. Так же у кого есть опыт использования данного устройства или устройства R750. Все будет в этой теме.
     
    • Полезно! Полезно! x 4
    • Спасибо! Спасибо! x 1
  2. #2 Knock1989, 18 авг 2017
    Последнее редактирование: 18 авг 2017
    По значению в базе = не чем быстрее едем, тем раньше предупреждает, а фиксированное значение, взятое с базы Speedcamonline, оно для каждой точки в своё в зависимости от её типа, разрешенной скорости на участке, дорожного графа и других условий.
    И опыта пока ни у кого нет, Вы, видимо, один из первых, кто этот девайс подержал в руках.
    Продажи еще не открыты, в лучшем случае всё на уровне предзаказов.
     
    • Согласен Согласен x 1
  3. Плохо что фильтр на резьбе, а не на магните.
     
  4. В продаже уже есть. У меня на витрине стоят, и уже продано штук пять
     
    • Полезно! Полезно! x 1
  5. Уважаемый Eduard1978, поскольку Вы имеете возможность тестировать актуальные комбо-устройства разных производителей, хотелось бы увидеть от Вас сравнительную оценку по основным проблемам устройств. К примеру, есть ли у новых Неолайнов хоть какие-то улучшения по части видеосъёмки, в частности, ночной, особенно при небольшой скорости движения? Или всё то же стандартное "мыло", свойственное для дешёвых китайских аналогов, нечитаемые номерные знаки уже при 20-30 км/ч, особенно на боковых участках экрана, всё те же бочкообразные искажения картинки видеозаписи и это при том, что угол обзора уменьшили до 135 градусов (по сравнению с предыдущими гибридами - Neoline X-COP 9500s, 9700)? Модель процессора по понятным маркетинговым соображениям не сообщается производителем - "самый мощный на сегодняшний день процессор Ambarella" - и всё! Закрадываются смутные сомнения, что это всё тот же A7LA50 2013-го года выпуска.
     
  6. #6 Nagumich, 22 авг 2017
    Последнее редактирование: 22 авг 2017
    Вам лучше ознакомиться с профильным форумом, тема Эдуарда там тоже есть: Видеорегистраторы в Уфе
     
    • Нравится Нравится x 1
  7. Почти все эти видеообзоры от Эдуарда я уже видел на ютубе. Вопросы, собственно, по новинкам от Неолайна (X-COP R700 и R750). Поскольку имею опыт по двум предыдущим моделям (X-COP 9000 и X-COP 9500s), хотелось бы услышать мнение профессионала на предмет улучшения качества видеосъёмки у новинок.
     
  8. Надеятесь на чудо?
    Чуда нет в нем никакого. Если вам улучшения видоса, то нет. Да и кинотеатрального качества то же нет.
    Писатели прошивок на это не заточены.
    Они уже в предыдущих версиях достигли (как они считают) нормального качества и битрейт никто не будет повышать и управление (управляемой матрицей кстати) никто менять не хочет.
     
    • Пункт 19 Условий и правил форума
    Конечно надеюсь. От видеорегистратора не требуется никакого кинотеатрального качества - это уж явный перебор, а вот повысить детализацию (читаемость номерных знаков) - не такое уж и заоблачное желание. Простым увеличением битрейта можно добиться всего лишь сокращения ресурса карты памяти.
     
  9. Даже битрейт не поднят...
     
  10. @Eduard1978
    А можно попросить выложить файл, записанный на этом комбике. Интересно посмотреть исходный, не испорченный ютубой.
     
    • Согласен Согласен x 1
  11. #12 j1h, 28 авг 2017
    Последнее редактирование модератором: 28 авг 2017
    Подскажите, есть модель NEOLINE X-COP R700 укажите ссылку откуда скачать приложение X-COP ?
     
  12. @j1h, приложение для AppStore будет в десятых числах сентября, для PlayMarket - чуть пораньше.
    Если Вы на Андроиде и хотите начать пользоваться приложением уже сейчас - бета-версию приложения могу предоставить в личке.
     
  13. Под роликом на Ютубе есть ссылка на диск
    --- Сообщения объединены, 30 авг 2017 ---
    Сейчас на месяц буду в отпуске, после отпуска собирусь силами, и если кто может помочь мне с приборами, котрых не имеется напрмер IBOX говнобокс, пантера, кординалы. Я буду делать все по чесноку, поэтому хочу взять все популярные приборы и сделать битву гибридов:D
    Если кто готов на тест предоставить эти приборы, очень буду признателен
     
    • Спасибо! Спасибо! x 1
  14. @Eduard1978 или @Neoline Support ... подскажите... отключается ли на R750 гетеродин при отключении всех диапазонов в меню устройства? Или же при путешествии в страны ЕС надо заранее продумать тумблер в салоне для принудительного отключения модуля РД от питания?
     
  15. Отключаются все диапазоны в меню. Каждый отдельно
     
  16. ....и далее? Отключается ли после этого гетеродин радарной части? Проверяли как-то? Т.е. поднести к приёмнику РД другой РД и посмотреть, есть ли реакция этого "другого РД". В качестве "другого РД" лучше попробовать несколько разных. Я, возможно, могу ошибаться в методике проверки, но другой не знаю
     
  17. Скачал
    Если это файл регистратора то это просто жесть.
    И такой комбик в топку сразу.
    upload_2017-9-1_10-11-15.png
     
    • Спасибо! Спасибо! x 1
  18. Код:
    General
    Complete name               : F:\[Downloads]\6545184_2017_08_25_12_17_29_DRV.MP4
    Format                      : MPEG-4
    Format profile              : JVT
    Codec ID                    : avc1 (avc1/isom)
    File size                   : 140 MiB
    Duration                    : 50s 450ms
    Overall bit rate mode       : Variable
    Overall bit rate            : 23.3 Mbps
    Encoded date                : UTC 2017-08-25 12:17:29
    Tagged date                 : UTC 2017-08-25 12:17:29
    AMBA                        :
    
    Video
    ID                          : 1
    Format                      : AVC
    Format/Info                 : Advanced Video Codec
    Format profile              : Main@L4.1
    Format settings, CABAC      : Yes
    Format settings, ReFrames   : 2 frames
    Format settings, GOP        : M=3, N=15
    Codec ID                    : avc1
    Codec ID/Info               : Advanced Video Coding
    Duration                    : 50s 450ms
    Bit rate mode               : Variable
    Bit rate                    : 20.1 Mbps
    Maximum bit rate            : 16.0 Mbps
    Width                       : 1 920 pixels
    Height                      : 1 080 pixels
    Display aspect ratio        : 16:9
    Frame rate mode             : Constant
    Frame rate                  : 29.970 (30000/1001) fps
    Color space                 : YUV
    Chroma subsampling          : 4:2:0
    Bit depth                   : 8 bits
    Scan type                   : Progressive
    Bits/(Pixel*Frame)          : 0.323
    Stream size                 : 121 MiB (86%)
    Title                       : Ambarella AVC
    Language                    : English
    Encoded date                : UTC 2017-08-25 12:17:29
    Tagged date                 : UTC 2017-08-25 12:17:29
    Color range                 : Full
    
    Audio
    ID                          : 2
    Format                      : AAC
    Format/Info                 : Advanced Audio Codec
    Format profile              : LC
    Codec ID                    : 40
    Duration                    : 50s 432ms
    Bit rate mode               : Constant
    Bit rate                    : 64.0 Kbps
    Nominal bit rate            : 128 Kbps
    Channel(s)                  : 1 channel
    Channel positions           : Front: C
    Sampling rate               : 48.0 KHz
    Frame rate                  : 46.875 fps (1024 spf)
    Compression mode            : Lossy
    Stream size                 : 394 KiB (0%)
    Title                       : Ambarella AAC
    Language                    : English
    Encoded date                : UTC 2017-08-25 12:17:29
    Tagged date                 : UTC 2017-08-25 12:17:29
    
    Text
    ID                          : 3
    Format                      : Timed Text
    Codec ID                    : text
    Duration                    : 50s 450ms
    Bit rate mode               : Constant
    Bit rate                    : 12.6 Kbps
    Stream size                 : 77.8 KiB (0%)
    Title                       : Ambarella EXT
    Language                    : English
    Forced                      : No
    Encoded date                : UTC 2017-08-25 12:17:29
    Tagged date                 : UTC 2017-08-25 12:17:29
    
    

    По радарной базе есть минусы.
    1. Я не знаю откуда выгружаются данные, но данные не полные. Проверял и mapcam и speedcamonline - в подмосковье есть три места (ну имеется ввиду где я чаще езжу), где в базе регика нет камер, но по факту они висят и отображаются в базах указанных выше сайтов. И это уже давно (да, базу в регике использую последнюю с официального сайта).
    2. "Камера в спину" исполнено в урезанном режиме, а именно: да, регик проговаривает, но по проезду камеры сразу молчит, а по идее должен отображать минусовое расстояние. Ну то есть то расстояние на котором камера ещё ловит в спину.

    Из хотелок:
    Было бы очень прекрасно, если бы в регике была база не только камер, но и лежачих полицейских, опасных поворотов, населенных пунктов и т.п. Короче как в базах мапкама и спидкамонлайн.

    Из огромных минусов Неолайна - ооооочень долгая реакция техподдержки.
     
  19. Я взял файл и он с такими пакостными характертстиками.
    Значит @Eduard1978 выложил специально такой файл. Хотя я просил ...
    А вы @Diogen видимо владелец этого устройства. Можно хоть вас попросить реальный файл?
     

Поделиться этой страницей

Рейтинг@Mail.ru